Login
Username:
Password:
[Signup]
[Recover Account]


Browse Torrents

Poll


You must be logged in to view polls



Latest Torrents
Blood.UK.S01E01E02...
- [Size: 387.18 MB]

Hero No Zero 3 (Ma...
- [Size: 638.09 MB]

Chalbaaz (2018) Sa...
- [Size: 699.80 MB]

Bodhon [2017] Beng...
- [Size: 583.86 MB]

Munni Metric Pass ...
- [Size: 591.77 MB]


Torrent Details For "Crazy.Rich.Asians.2018.1080p.WEB-DL.DD5.1.H264-FGT"

Crazy.Rich.Asians.2018.1080p.WEB-DL.DD5.1.H264-FGT

Download this torrent | Magnet Download
Health:
Seeds: 8,571
Leechers: 6,273
Completed: 69,660 
Last Checked: 06-11-2018 17:46:21
External Torrent
Update Stats



Images Host

Poster


iMDB
Title: Crazy Rich Asians
Year: 2018
Runtime: 120 minutes
Language: English
All Genres: Comedy, Romance
Tagline: The Only Thing Crazier Than Love is Family
Director: Jon M. Chu
Writing By: Peter Chiarelli,Adele Lim,Kevin Kwan,
Produced By: Fran Borgia,Janice Chua,Tim Coddington,Robert Friedland,Nina Jacobson,Kevin Kwan,Alexandra H. Machinist,Lindsey Martin,John Penotti,Brad Simpson,Bryan Unkeless,
Music: Brian Tyler
Cast:
Constance Wu as Rachel Chu
Henry Golding as Nick Young
Michelle Yeoh as Eleanor Young
Gemma Chan as Astrid Young Teo
Lisa Lu as Ah Ma
Awkwafina as Peik Lin Goh
Harry Shum Jr. as Charlie Wu
Ken Jeong as Wye Mun Goh
Sonoya Mizuno as Araminta Lee
Chris Pang as Colin Khoo
Trailers:
Official Trailer
Teaser Trailer


Watch-Free-HD     Download

Details
Name:Crazy.Rich.Asians.2018.1080p.WEB-DL.DD5.1.H264-FGT
Description:
Video
ID : 1
Format : AVC
Format/Info : Advanced Video Codec
Format profile : [email protected]
Format settings : CABAC / 5 Ref Frames
Format settings, CABAC : Yes
Format settings, ReFrames : 5 frames
Codec ID : V_MPEG4/ISO/AVC
Duration : 2 h 0 min
Bit rate : 4 518 kb/s
Width : 1 920 pixels
Height : 800 pixels
Display aspect ratio : 2.40:1
Frame rate mode : Constant
Frame rate : 23.976 (24000/1001) FPS
Color space : YUV
Chroma subsampling : 4:2:0
Bit depth : 8 bits
Scan type : Progressive
Bits/(Pixel*Frame) : 0.123
Stream size : 3.81 GiB (92%)
Title : Crazy.Rich.Asians.2018.1080p.WEB-DL.DD5.1.H264-FGT
Language : English
Default : Yes
Forced : No
Color range : Limited
Color primaries : BT.709
Transfer characteristics : BT.709
Matrix coefficients : BT.709

Audio
ID : 2
Format : AC-3
Format/Info : Audio Coding 3
Commercial name : Dolby Digital
Codec ID : A_AC3
Duration : 2 h 0 min
Bit rate mode : Constant
Bit rate : 384 kb/s
Channel(s) : 6 channels
Channel layout : L R C LFE Ls Rs
Sampling rate : 48.0 kHz
Frame rate : 31.250 FPS (1536 SPF)
Bit depth : 16 bits
Compression mode : Lossy
Stream size : 331 MiB (8%)
Title : Crazy.Rich.Asians.2018.1080p.WEB-DL.DD5.1.H264-FGT
Language : English
Service kind : Complete Main
Default : Yes
Forced : No

 http://imagecurl.com/viewer.p...2220385868741604.png

 http://imagecurl.com/viewer.p...4782048411734663.png

 http://imagecurl.com/viewer.p...5816411629930873.png

Category:Movies > WEB-HD
Lang:English  English
Total Size:4.13 GB
Info Hash:35c4f598dd64e2156eb88e2699dc2bf665a4812f
Added By:Scene
Date Added:06-11-2018 09:32:02
Downloads:480

Ratings:Not Yet Rated (Log in to rate it)


Tracker:
http://tracker.trackerfix.com:80/announce


File List: 


Comments

No comments still posted

Top
Copyright 2018 DownloadHD -|- Page Generated In 0.205994 secs.
-|- RSS Feed -|- Feed Info