Login
Username:
Password:
[Signup]
[Recover Account]


Browse Torrents

Poll


You must be logged in to view polls



Latest Torrents
EasyUEFI.3.5
- [Size: 12.64 MB]

Driver Talent Pro ...
- [Size: 996.27 kB]

DAEMON Tools Ultra...
- [Size: 42.42 MB]

DAEMON Tools Ultra...
- [Size: 38.79 MB]

BitTorrent PRO v7....
- [Size: 57.75 MB]


Torrent Details For "Witness.for.the.Prosecution.1957.1080p.BluRay.REMUX.AVC.DTS-HD.MA.2.0-FGT"

Witness.for.the.Prosecution.1957.1080p.BluRay.REMUX.AVC.DTS-HD.MA.2.0-FGT

Download this torrent | Magnet Download
Health:
Seeds: 40
Leechers: 162
Completed: 154 
Last Checked: 07-11-2018 21:35:31
External Torrent
Update Stats



Images Host

Poster


iMDB
Title: Witness for the Prosecution
Year: 1957
Runtime: 116 minutes
Votes: 86229
Rating: 8.4/10
Language: English, German
Tagline: Unmatched ...in a half century of motion picture suspense!
Director: Billy Wilder
Writing By: Agatha Christie,Billy Wilder,Harry Kurnitz,Lawrence B. Marcus,
Produced By: Arthur Hornblow Jr.,Edward Small,
Music: Matty Malneck
Cast:
Tyrone Power as Leonard Vole
Marlene Dietrich as Christine
Charles Laughton as Sir Wilfrid Roberts
Elsa Lanchester as Miss Plimsoll
John Williams as Brogan-Moore
Henry Daniell as Mayhew
Ian Wolfe as Carter
Torin Thatcher as Mr. Myers
Norma Varden as Mrs. Emily Jane French
Una O'Connor as Janet MacKenzie


Watch-Free-HD     Download

Details
Name:Witness.for.the.Prosecution.1957.1080p.BluRay.REMUX.AVC.DTS-HD.MA.2.0-FGT
Description:

Video
ID : 1
Format : AVC
Format/Info : Advanced Video Codec
Format profile : [email protected]
Format settings : CABAC / 4 Ref Frames
Format settings, CABAC : Yes
Format settings, ReFrames : 4 frames
Codec ID : V_MPEG4/ISO/AVC
Duration : 1 h 56 min
Bit rate mode : Variable
Bit rate : 17.0 Mb/s
Maximum bit rate : 40.0 Mb/s
Width : 1 920 pixels
Height : 1 080 pixels
Display aspect ratio : 16:9
Frame rate mode : Constant
Frame rate : 23.976 (24000/1001) FPS
Color space : YUV
Chroma subsampling : 4:2:0
Bit depth : 8 bits
Scan type : Progressive
Bits/(Pixel*Frame) : 0.342
Stream size : 13.8 GiB (73%)
Title : Witness.for.the.Prosecution.1957.1080p.BluRay.REMUX.AVC.DTS-HD.MA.2.0-FGT
Writing library : x264 core 148 r2665 a01e339
Encoding settings : cabac=1 / ref=4 / deblock=1:1:1 / analyse=0x3:0x133 / me=umh / subme=10 / psy=1 / psy_rd=0.40:0.00 / mixed_ref=1 / me_range=24 / chroma_me=1 / trellis=2 / 8x8dct=1 / cqm=0 / deadzone=21,11 / fast_pskip=1 / chroma_qp_offset=-2 / threads=9 / lookahead_threads=1 / sliced_threads=0 / slices=4 / nr=0 / decimate=1 / interlaced=0 / bluray_compat=1 / constrained_intra=0 / bframes=3 / b_pyramid=0 / b_adapt=2 / b_bias=0 / direct=3 / weightb=1 / open_gop=1 / weightp=1 / keyint=24 / keyint_min=1 / scenecut=40 / intra_refresh=0 / rc_lookahead=24 / rc=2pass / mbtree=1 / bitrate=17000 / ratetol=1.0 / qcomp=0.60 / qpmin=0 / qpmax=69 / qpstep=4 / cplxblur=20.0 / qblur=0.5 / vbv_maxrate=40000 / vbv_bufsize=30000 / nal_hrd=vbr / filler=0 / ip_ratio=1.40 / aq=1:0.60
Language : English
Default : No
Forced : No
Color range : Limited
Color primaries : BT.709
Transfer characteristics : BT.709
Matrix coefficients : BT.709

Audio #1
ID : 2
Format : DTS XLL
Format/Info : Digital Theater Systems
Commercial name : DTS-HD Master Audio
Codec ID : A_DTS
Duration : 1 h 56 min
Bit rate mode : Variable
Bit rate : 1 668 kb/s
Channel(s) : 2 channels
Channel layout : L R
Sampling rate : 48.0 kHz
Frame rate : 93.750 FPS (512 SPF)
Bit depth : 16 bits
Compression mode : Lossless
Stream size : 1.36 GiB (7%)
Title : Witness.for.the.Prosecution.1957.1080p.BluRay.REMUX.AVC.DTS-HD.MA.2.0-FGT
Language : English
Default : Yes
Forced : No


 http://imagecurl.com/viewer.p...8088137090458186.png

 http://imagecurl.com/viewer.p...0471458016122743.png


 http://imagecurl.com/viewer.p...5486402.png[/center]
Category:Movies > Remux
Lang:English  English
Total Size:18.96 GB
Info Hash:b475118867e7de70be83185bd72d38ca3d9789c7
Added By:Scene
Date Added:07-11-2018 16:57:39
Downloads:62

Ratings:Not Yet Rated (Log in to rate it)


Tracker:
http://tracker.trackerfix.com:80/announce


File List: 


Comments

No comments still posted

Top
Copyright 2018 DownloadHD -|- Page Generated In 0.327699 secs.
-|- RSS Feed -|- Feed Info