Login
Username:
Password:
[Signup]
[Recover Account]


Browse Torrents

Poll


You must be logged in to view polls



Latest Torrents
Blood.UK.S01E01E02...
- [Size: 387.18 MB]

Hero No Zero 3 (Ma...
- [Size: 638.09 MB]

Chalbaaz (2018) Sa...
- [Size: 699.80 MB]

Bodhon [2017] Beng...
- [Size: 583.86 MB]

Munni Metric Pass ...
- [Size: 591.77 MB]


Torrent Details For "18+.Traffik.2018.720p.BluRay.x264.LLG"

18+.Traffik.2018.720p.BluRay.x264.LLG

Download this torrent | Magnet Download
Health:
Seeds: 1
Leechers: 4
Completed:
Last Checked: 08-11-2018 14:39:56
External Torrent
Update Stats



Images Host

Poster
No poster


iMDB
Imdb Picture Title: Traffik
Year: 2018
Runtime: 96 minutes
Votes: 6121
Rating: 7.5/10
Language: English
Country: USA
All Genres: Thriller
Plot Outline: A couple off for a romantic weekend in the mountains are accosted by a biker gang. Alone in the mountains, Brea and John must defend themselves against the gang, who will stop at nothing to protect their secrets.


Tagline: Refuse To Be A Victim
Director: Deon Taylor
Writing By: Deon Taylor,
Produced By: Roxanne Avent,Victoria Bullock,Karicean Karen Dick,Heather Kritzer,Paula Patton,Gingi Rochelle,Deon Taylor,
Music: Geoff Zanelli
Cast:
Dawn Olivieri as Cara
Paula Patton as Brea
Luke Goss as Red
William Fichtner as Mr. Waynewright
Missi Pyle as Deputy Sally Marnes
Roselyn Sanchez as Malia
Omar Epps as John
Laz Alonso as Darren Cole
Claude Duhamel as Pony
September D'Angelo as Beautiful Office Lady
Trailers:
Trailer


Watch-Free-HD     Download

Details
Name:18+.Traffik.2018.720p.BluRay.x264.LLG
Description:


******************************Thumbnail:**********************

 

******************************Screenshots:********************

 Screenshot 1

 Screenshot 2

 Screenshot 3

 Screenshot 4

 Screenshot 5

 Screenshot 6

 Screenshot 7

 Screenshot 8

 Screenshot 9

******************************Poster:**********************

 

************************************************************

18+.Traffik.2018.720p.BluRay.x264.LLG.mp4
Format                                   : MPEG-4
Format profile                           : Base Media
Codec ID                                 : isom (isom/iso2/avc1/mp41)
File size                                : 1.19 GiB
Duration                                 : 1 h 36 min
Overall bit rate                         : 1 757 kb/s
Writing application                      : Lavf57.56.101

Video
ID                                       : 1
Format                                   : AVC
Format/Info                              : Advanced Video Codec
Format profile                           : [email protected]
Format settings                          : CABAC / 4 Ref Frames
Format settings, CABAC                   : Yes
Format settings, RefFrames               : 4 frames
Codec ID                                 : avc1
Codec ID/Info                            : Advanced Video Coding
Duration                                 : 1 h 36 min
Bit rate                                 : 1 500 kb/s
Width                                    : 1 280 pixels
Height                                   : 536 pixels
Display aspect ratio                     : 2.40:1
Frame rate mode                          : Constant
Frame rate                               : 23.976 (23976/1000) FPS
Color space                              : YUV
Chroma subsampling                       : 4:2:0
Bit depth                                : 8 bits
Scan type                                : Progressive
Bits/(Pixel*Frame)                       : 0.091
Stream size                              : 1.01 GiB (85%)


Audio
ID                                       : 2
Format                                   : AC-3
Format/Info                              : Audio Coding 3
Commercial name                          : Dolby Digital
Codec ID                                 : ac-3
Duration                                 : 1 h 36 min
Bit rate mode                            : Constant
Bit rate                                 : 256 kb/s
Channel(s)                               : 6 channels
Channel layout                           : L R C LFE Ls Rs
Sampling rate                            : 48.0 kHz
Frame rate                               : 31.250 FPS (1536 SPF)
Bit depth                                : 16 bits
Compression mode                         : Lossy
Stream size                              : 177 MiB (15%)
Language                                 : English
Service kind                             : Complete Main
Default                                  : Yes
Alternate group                          : 1



********************************************************

Category:Movies > HDRips
Lang:English  English
Total Size:1.20 GB
Info Hash:538e2deaf24495db76f9bd0b1997aca0ffa85741
Added By:LifeLongg
Date Added:08-11-2018 14:27:41
Downloads:206

Ratings:Not Yet Rated (Log in to rate it)


Tracker:
udp://tracker.openbittorrent.com:80/announce


File List: 


Comments

No comments still posted

Top
Copyright 2018 DownloadHD -|- Page Generated In 0.508265 secs.
-|- RSS Feed -|- Feed Info